Game of Thrones - Season 4 Trailer #1 720p .MP4

seeders: 0
leechers: 0
updated:
Added by amaanu0167.86K in Movies > Trailer
Downloaded 10 times.

DownloadFast Safe Anonymous
movies, software, shows...
Game of Thrones - Season 4 Trailer #1 720p .MP4 (Size: 25.11 MB)
  Game of Thrones Season 4_ Trailer #1 (HBO).mp4 25.11 MB

Description

image

Video
ID : 1
Format : AVC
Format/Info : Advanced Video Codec
Format profile : [email protected]
Format settings, CABAC : Yes
Format settings, ReFrames : 1 frame
Codec ID : avc1
Codec ID/Info : Advanced Video Coding
Duration : 1mn 43s
Bit rate : 1 849 Kbps
Maximum bit rate : 3 462 Kbps
Width : 1 280 pixels
Height : 720 pixels
Display aspect ratio : 16:9
Frame rate mode : Constant
Frame rate : 29.970 fps
Color space : YUV
Chroma subsampling : 4:2:0
Bit depth : 8 bits
Scan type : Progressive
Bits/(Pixel*Frame) : 0.067
Stream size : 22.7 MiB (90%)
Tagged date : UTC 2014-01-10 00:31:09

Audio
ID : 2
Format : AAC
Format/Info : Advanced Audio Codec
Format profile : LC
Codec ID : 40
Duration : 1mn 43s
Bit rate mode : Variable
Bit rate : 192 Kbps
Maximum bit rate : 201 Kbps
Channel(s) : 2 channels
Channel positions : Front: L R
Sampling rate : 44.1 KHz
Compression mode : Lossy
Stream size : 2.36 MiB (9%)
Title : IsoMedia File Produced by Google, 5-11-2011

Related Torrents

torrent name size files age seed leech

Sharing Widget


Download torrent
25.11 MB
seeders:0
leechers:0
Game of Thrones - Season 4 Trailer #1 720p .MP4



To share this torrent use the code below and insert it into comments, status messages, forum posts or your signature.

Torrent: Game of Thrones - Season 4 Trailer #1 720p .MP4

Trackers

tracker name
udp://tracker.openbittorrent.com:80/announce
udp://tracker.publicbt.com:80/announce
udp://tracker.istole.it:80/announce
µTorrent compatible trackers list

Locations

name
KickassTorrents
Torrent hash: EDED8C177DAA1E398E1F353BA209934D12FC1638

All Comments

please, leave only comments related to that torrent
Sign In

Perfect A/V! Thanks amaanu01!
audio: 10video: 10
Perfect A/V! Thanks amaanu01!
audio: 10video: 10
Still waiting

User Opinions

firehawk6914.89K, A-Kula3d8123, kwallo2714, kipling442059, shehroxe957, Chrisboy67752, sababashir693, noah999549, dejanking440, PradeepMicro260 ... And 5 more
Report a bug Open chat